你所知道的4K资源这里全部都有 4K电影 | 4K视频 | 4K壁纸 | 4K MV 怎么播放4K视频 | 4K电视演示片

教你玩转4K私人与家庭影院存储 NAS组装 | 黑群辉 家庭/影院Nas论坛

4K家庭影院信号源与视频设备知识 4K蓝光高清播放机 - 那个品牌好? 4K投影机论坛 | 4K电视机论坛

手把手教你搭建属于自己的家庭影院 4K家庭影院案例 | 家庭影院音频 4K家庭影院论坛

查看: 182|回复: 2
打印 上一主题 下一主题

[剧情片] 这个男人来自疯狂世界 The.Man.Who.Killed.Don.Quixote.2018.1080p.BluRay.X264-AMIABLE 9.86GB

[复制链接]

 成长值: 1550

级别:资源管理组

注册时间
2017-10-20
最后登录
2019-6-13
听众
0
收听
0
主题
78353
蓝光币
25131 枚
贡献
2677 点
跳转到指定楼层
楼主


译  名 这个男人来自疯狂世界 / The Man Who Killed Don Quixote / 杀了唐吉诃德的男人 / 杀死堂吉诃德的人 / 谁杀了堂吉诃德 / 谁杀死了堂吉诃德
片  名 El hombre que mató a Don Quijote
年  代 2018
产  地 西班牙 / 比利时 / 法国 / 葡萄牙 / 英国
类  别 剧情 / 喜剧 / 奇幻 / 冒险
语  言 英语 / 西班牙语
上映日期 2018-05-19(戛纳电影节) / 2018-06-01(西班牙)
IMDb评分  6.5/10 from 8051 users
IMDb链接  
豆瓣评分 6.9/10 from 1588 users
豆瓣链接 
片  长 132分钟
导  演 特瑞·吉列姆 Terry Gilliam
编  剧 特瑞·吉列姆 Terry Gilliam / 托尼·格里森尼 Tony Grisoni / 塞万提斯 Miguel de Cervantes y Saavedra
主  演 亚当·德赖弗 Adam Driver
      欧嘉·柯瑞兰寇 Olga Kurylenko
      乔纳森·普雷斯 Jonathan Pryce
      斯特兰·斯卡斯加德 Stellan Skarsg?rd
      奥斯卡·贾恩那达 óscar Jaenada
      杰森·沃特金斯 Jason Watkins
      塞尔希·洛佩斯 Sergi López
      詹迪·莫拉 Jordi Mollà
      特瑞·吉列姆 Terry Gilliam
      霍威克·库区科利安 Hovik Keuchkerian
      阿尔维托·乔·李 Alberto Jo Lee
      威廉·米勒 William Miller
      萝西·德·帕尔马 Rossy de Palma
      布鲁诺·塞维利亚 Bruno Sevilla


标  签 西班牙 | 奇幻 | 2018 | 英国 | 喜剧 | 美国 | 冒险 | 剧情

简  介  

  托比,一个愤世嫉俗的广告导演,发现自己陷入了一个古代西班牙鞋匠的荒唐幻想中,他相信自己就是堂吉诃德。在他们越来越超现实的冒险过程中,托比被迫直面他 在青年时代拍摄的一部电影的悲剧性后果——这部电影永远地改变了一个西班牙小村庄的希望和梦想。托比能补偿并找回初心吗?堂吉诃德能在他的疯狂和即将来临的死亡中幸存吗?爱情能战胜一切吗?

获奖情况  

  第33届西班牙戈雅奖(2019)
  最佳艺术指导(提名)
  最佳制作人
  最佳服装设计(提名)
  最佳化妆与发型
  最佳原创歌曲(提名)



  1. Video
  2. ID                                       : 1
  3. Format                                   : AVC
  4. Format/Info                              : Advanced Video Codec
  5. Format profile                           : <a href="/cdn-cgi/l/email-protection" class="__cf_email__" data-cfemail="94dcfdf3fcd4d8a0baa5">[email protected]</a>
  6. Format settings                          : CABAC / 5 Ref Frames
  7. Format settings, CABAC                   : Yes
  8. Format settings, ReFrames                : 5 frames
  9. Codec ID                                 : V_MPEG4/ISO/AVC
  10. Duration                                 : 2 h 12 min
  11. Bit rate                                 : 9 090 kb/s
  12. Width                                    : 1 920 pixels
  13. Height                                   : 808 pixels
  14. Display aspect ratio                     : 2.40:1
  15. Frame rate mode                          : Constant
  16. Frame rate                               : 23.976 (24000/1001) FPS
  17. Color space                              : YUV
  18. Chroma subsampling                       : 4:2:0
  19. Bit depth                                : 8 bits
  20. Scan type                                : Progressive
  21. Bits/(Pixel*Frame)                       : 0.244
  22. Stream size                              : 8.43 GiB (86%)
  23. Writing library                          : x264 core 157 r2970 5493be8
  24. Encoding settings                        : cabac=1 / ref=5 / deblock=1:-3:-3 / analyse=0x3:0x113 / me=umh / subme=8 / psy=1 / psy_rd=1.00:0.00 / mixed_ref=1 / me_range=32 / chroma_me=1 / trellis=2 / 8x8dct=1 / cqm=0 / deadzone=21,11 / fast_pskip=1 / chroma_qp_offset=-2 / threads=25 / lookahead_threads=4 / sliced_threads=0 / nr=0 / decimate=1 / interlaced=0 / bluray_compat=0 / constrained_intra=0 / bframes=3 / b_pyramid=2 / b_adapt=2 / b_bias=0 / direct=3 / weightb=1 / open_gop=0 / weightp=2 / keyint=240 / keyint_min=24 / scenecut=40 / intra_refresh=0 / rc_lookahead=50 / rc=2pass / mbtree=1 / bitrate=9090 / ratetol=1.0 / qcomp=0.60 / qpmin=0 / qpmax=69 / qpstep=4 / cplxblur=20.0 / qblur=0.5 / ip_ratio=1.40 / aq=3:0.80
  25. Default                                  : Yes
  26. Forced                                   : No

  27. Audio
  28. ID                                       : 2
  29. Format                                   : DTS
  30. Format/Info                              : Digital Theater Systems
  31. Codec ID                                 : A_DTS
  32. Duration                                 : 2 h 12 min
  33. Bit rate mode                            : Constant
  34. Bit rate                                 : 1 509 kb/s
  35. Channel(s)                               : 6 channels
  36. Channel layout                           : C L R Ls Rs LFE
  37. Sampling rate                            : 48.0 kHz
  38. Frame rate                               : 93.750 FPS (512 SPF)
  39. Bit depth                                : 24 bits
  40. Compression mode                         : Lossy
  41. Stream size                              : 1.40 GiB (14%)
  42. Language                                 : English
  43. Default                                  : Yes
  44. Forced                                   : No

  45. Text #1
  46. ID                                       : 3
  47. Format                                   : UTF-8
  48. Codec ID                                 : S_TEXT/UTF8
  49. Codec ID/Info                            : UTF-8 Plain Text
  50. Duration                                 : 2 h 5 min
  51. Bit rate                                 : 50 b/s
  52. Count of elements                        : 2100
  53. Stream size                              : 46.2 KiB (0%)
  54. Language                                 : English
  55. Default                                  : No
  56. Forced                                   : No

  57. Text #2
  58. ID                                       : 4
  59. Format                                   : UTF-8
  60. Codec ID                                 : S_TEXT/UTF8
  61. Codec ID/Info                            : UTF-8 Plain Text
  62. Duration                                 : 2 h 7 min
  63. Bit rate                                 : 53 b/s
  64. Count of elements                        : 2301
  65. Stream size                              : 50.4 KiB (0%)
  66. Title                                    : SDH
  67. Language                                 : English
  68. Default                                  : No
  69. Forced                                   : No

  70. Menu
  71. 00:00:00.000                             : en:Chapter 01
  72. 00:11:29.272                             : en:Chapter 02
  73. 00:23:22.818                             : en:Chapter 03
  74. 00:32:00.961                             : en:Chapter 04
  75. 00:40:59.791                             : en:Chapter 05
  76. 00:55:08.305                             : en:Chapter 06
  77. 01:06:43.917                             : en:Chapter 07
  78. 01:17:12.628                             : en:Chapter 08
  79. 01:26:07.788                             : en:Chapter 09
  80. 01:39:55.990                             : en:Chapter 10
  81. 01:52:38.669                             : en:Chapter 11
  82. 02:06:48.100                             : en:Chapter 12
复制代码








分享到:  QQ好友和群QQ好友和群
收藏收藏

级别:初级观众 Lv.1

注册时间
2019-6-9
最后登录
2019-6-12
听众
3
收听
0
主题
0
蓝光币
9 枚
贡献
0 点
沙发
发表于 前天 10:58 | 只看该作者
楼主发贴辛苦了,谢谢楼主分享!我觉得中国高清电影网是注册对了!

级别:初级观众 Lv.1

注册时间
2019-6-12
最后登录
2019-6-12
听众
1
收听
0
主题
0
蓝光币
4 枚
贡献
0 点
板凳
发表于 昨天 19:28 | 只看该作者
谢谢分享!!!
*滑动验证:
懒得打字嘛,点击右侧快捷回复 【右侧内容,后台自定义】
您需要登录后才可以回帖 登录 | 立即注册

本版积分规则

|Archiver|手机版|小黑屋| |网站地图

GMT+8, 2019-6-13 19:01 , Processed in 0.268510 second(s), 43 queries .

Powered by HDchina X3.4

Copyright 2017-2019©HDchina.All right reserved

返回顶部 联系我们
幸运飞艇APP 幸运飞艇游戏 幸运飞艇游戏 幸运飞艇游戏 幸运飞艇APP 幸运飞艇游戏 幸运飞艇游戏 幸运飞艇游戏 幸运飞艇APP 幸运飞艇APP