你所知道的4K资源这里全部都有 4K电影 | 4K视频 | 4K壁纸 | 4K MV 怎么播放4K视频 | 4K电视演示片

教你玩转4K私人与家庭影院存储 NAS组装 | 黑群辉 家庭/影院Nas论坛

4K家庭影院信号源与视频设备知识 4K蓝光高清播放机 - 那个品牌好? 4K投影机论坛 | 4K电视机论坛

手把手教你搭建属于自己的家庭影院 4K家庭影院案例 | 家庭影院音频 4K家庭影院论坛

查看: 166|回复: 3
打印 上一主题 下一主题

[剧情片] 一个明星的诞生/一个巨星的诞生 A.Star.Is.Born.2018.Encore.Edition.1080p.BluRay.REMUX.AVC.DTS-HD.MA.TrueHD.7.1.Atmos-FGT 34.09GB

[复制链接]

 成长值: 1550

级别:资源管理组

注册时间
2017-10-20
最后登录
2019-6-13
听众
0
收听
0
主题
78353
蓝光币
25131 枚
贡献
2677 点
跳转到指定楼层
楼主


译  名 一个明星的诞生 / 一个巨星的诞生(台) / 星梦情深(港)
片  名 A Star Is Born
年  代 2018
产  地 美国
类  别 剧情 / 爱情 / 音乐
语  言 英语
上映日期 2018-08-31(威尼斯电影节) / 2018-10-05(美国)
IMDb评分  7.8/10 from 246619 users
IMDb链接  
豆瓣评分 7.2/10 from 69515 users
豆瓣链接 
片  长 135分钟
导  演 布莱德利·库珀 Bradley Cooper
编  剧 艾瑞克·罗斯 Eric Roth / 布莱德利·库珀 Bradley Cooper / 威尔·法特斯 Will Fetters / 莫斯·哈特 Moss Hart / 约翰·格列高利·邓恩 John Gregory Dunne / 琼·迪丹 Joan Didion / 弗兰克·皮尔森 Frank Pierson / 威廉·A·韦尔曼 William A. Wellman / 罗伯特·卡森 Robert Carson
主  演 Lady Gaga
      布莱德利·库珀 Bradley Cooper
      山姆·艾里奥特 Sam Elliott
      安德鲁·戴斯·克雷 Andrew Dice Clay
      拉菲·格拉沃恩 Rafi Gavron
      安东尼·拉莫斯 Anthony Ramos
      大卫·查普尔 Dave Chappelle
      亚历克·鲍德温 Alec Baldwin
      Marlon Williams
      布兰迪·卡莉 Brandi Carlile
      朗·瑞弗金 Ron Rifkin
      巴里·沙巴卡·亨利 Barry Shabaka Henley
      迈克尔·D·罗伯茨 Michael D. Roberts
      迈克尔·哈尔尼 Michael Harney
      Rebecca Field
      威廉·贝利 Willam Belli
      格雷戈·格伦伯格 Greg Grunberg
      D.J. 'Shangela' Pierce
      德瑞娜·德尼罗 Drena De Niro
      艾迪·格里芬 Eddie Griffin
      哈尔希 Halsey
      马修·利巴提克 Matthew Libatique
      路奈尔·坎贝尔 Luenell Campell
      Don Was
      Lenny Castro
      唐·罗伊·金 Don Roy King
      Gregory Scarnici
      Frank Anello
      Germano Blanco
      Megan Haun
      马克·查普曼 Mark G. Chapman
      Steven Ciceron
      阿曼达·菲尔茨 Amanda Fields
      阿尔弗雷德·加比杜林 Alfred Gabidullin
      弗雷德里克·基夫 Frederick Keeve


标  签 音乐 | 爱情 | 美国 | 2018 | 剧情 | 歌舞 | 传记 | 翻拍

简  介  

  在这个全新诠释的悲剧爱情故事中,乡村音乐家杰克·梅恩(布莱德利·库珀 饰)发掘了正在努力熬出头的服务员艾莉(Lady Gaga 饰),当时她正要放弃成为歌手的梦想时,杰克说动她进入演艺界,也在共事的过程中爱上她。不久艾莉的事业起飞,但杰克却克服不了他由来已久的心魔,使两人的关系开始崩裂……
本片是布莱德利·库珀生平第一次自编、自导、自演,并担任制片,挑战从来没有尝试过的现场演唱与音乐创作的电影。也是Lady Gaga首次挑战大银幕。其在影片中演唱的这些歌曲是由她跟布莱德利·库珀,还有几位艺人一起创作的。所有音乐都是原创和现场录音。

获奖情况  

  第91届奥斯卡金像奖(2019)
  最佳影片(提名)
  最佳男主角(提名) 布莱德利·库珀
  最佳女主角(提名) Lady Gaga
  最佳男配角(提名) 山姆·艾里奥特
  最佳改编剧本(提名) 艾瑞克·罗斯 / 威尔·法特斯 / 布莱德利·库珀
  最佳摄影(提名) 马修·利巴提克
  最佳混音(提名) 杰森·鲁德 / 迪恩·A·祖潘西奇 / 史蒂文·莫罗 / 汤姆·欧扎尼奇
  最佳原创歌曲 Lady Gaga / 马克·容森 / 安东尼·罗索曼多 / 安德鲁·怀亚特

  第76届金球奖(2019)
  电影类 最佳剧情片(提名)
  电影类 最佳导演(提名) 布莱德利·库珀
  电影类 剧情片最佳男主角(提名) 布莱德利·库珀
  电影类 剧情片最佳女主角(提名) Lady Gaga
  电影类 最佳原创歌曲 Lady Gaga

  第72届英国电影学院奖(2019)
  电影奖 最佳影片(提名)
  电影奖 最佳导演(提名) 布莱德利·库珀
  电影奖 最佳男主角(提名) 布莱德利·库珀
  电影奖 最佳女主角(提名) Lady Gaga
  电影奖 最佳改编剧本(提名) 艾瑞克·罗斯 / 威尔·法特斯 / 布莱德利·库珀
  电影奖 最佳原创音乐 Lady Gaga / 布莱德利·库珀 / Lukas Nelson
  电影奖 最佳音效(提名)

  第61届日本电影蓝丝带奖(2019)
  年度十佳海外影片

  第71届美国导演工会奖(2019)
  最佳电影导演(提名) 布莱德利·库珀
  最佳新人导演奖(提名) 布莱德利·库珀

  第25届美国演员工会奖(2019)
  电影奖 最佳男主角(提名) 布莱德利·库珀
  电影奖 最佳女主角(提名) Lady Gaga
  电影奖 最佳男配角(提名) 山姆·艾里奥特
  电影奖 最佳群戏(提名)

  第71届美国编剧工会奖(2019)
  电影奖 最佳改编剧本(提名) 艾瑞克·罗斯 / 威尔·法特斯 / 布莱德利·库珀

  第30届美国制片人工会奖(2019)
  最佳电影制片人奖(提名)

  第33届美国摄影协会奖(2019)
  电影长片最佳摄影(提名) 马修·利巴提克

  第69届美国剪辑工会奖(2019)
  剧情片最佳剪辑(提名) 杰伊·卡西迪

  第23届美国艺术指导工会奖(2019)
  电影奖 最佳当代电影艺术指导(提名) 凯伦·墨菲

  第21届美国服装设计工会奖(2019)
  现代电影最佳服装设计(提名) 埃林·贝纳赫

  第6届美国化妆及发型设计工会奖(2019)
  电影类最佳现代戏化妆
  电影类最佳现代戏发型设计(提名)

  第66届美国音效剪辑协会奖(2019)
  金卷轴奖 最佳电影对白剪辑(提名)
  金卷轴奖 最佳音乐片音乐剪辑(提名)

  第55届美国声音效果协会奖(2019)
  真人电影最佳音效(提名)

  第90届美国国家评论协会奖(2018)
  最佳导演 布莱德利·库珀
  最佳女主角 Lady Gaga
  最佳男配角 山姆·艾里奥特
  年度佳片

  第24届美国评论家选择电影奖(2019)
  最佳影片(提名)
  最佳导演(提名) 布莱德利·库珀
  最佳男主角(提名) 布莱德利·库珀
  最佳女主角 Lady Gaga
  最佳男配角(提名) 山姆·艾里奥特
  最佳改编剧本(提名) 艾瑞克·罗斯 / 威尔·法特斯 / 布莱德利·库珀
  最佳摄影(提名)
  最佳剪辑(提名)
  最佳歌曲

  第19届美国电影学会奖(2018)
  年度佳片

  第23届金卫星奖(2019)
  电影部门 最佳喜剧/音乐片
  电影部门 最佳导演(提名) 布莱德利·库珀
  电影部门 喜剧/音乐片最佳男主角(提名) 布莱德利·库珀
  电影部门 喜剧/音乐片最佳女主角(提名) Lady Gaga
  电影部门 最佳男配角(提名) 山姆·艾里奥特
  电影部门 最佳改编剧本(提名) 艾瑞克·罗斯 / 布莱德利·库珀
  电影部门 最佳原创歌曲
  电影部门 最佳摄影
  电影部门 最佳剪辑(提名)
  电影部门 最佳音效(提名)
  电影部门 最佳服装设计(提名)

  第22届好莱坞电影奖(2018)
  年度摄影奖 马修·利巴提克

  第17届华盛顿影评人协会奖(2018)
  最佳影片(提名)
  最佳导演(提名) 布莱德利·库珀
  最佳男主角 布莱德利·库珀
  最佳女主角 Lady Gaga
  最佳男配角(提名) 山姆·艾里奥特
  最佳改编剧本(提名) 艾瑞克·罗斯 / 威尔·法特斯 / 布莱德利·库珀
  最佳摄影(提名)
  最佳剪辑(提名)

  第31届芝加哥影评人协会奖(2018)
  最佳影片(提名)
  最佳导演(提名) 布莱德利·库珀
  最佳男主角(提名) 布莱德利·库珀
  最佳女主角(提名) Lady Gaga
  最佳改编剧本(提名) 艾瑞克·罗斯 / 威尔·法特斯 / 布莱德利·库珀
  最具潜力演员(提名) Lady Gaga
  最具潜力导演(提名) 布莱德利·库珀

  第17届旧金山影评人协会奖(2018)
  最佳女主角(提名) Lady Gaga

  第18届凤凰城影评人协会奖(2018)
  最佳女主角 Lady Gaga
  最佳原创歌曲
  十佳影片

  第12届底特律影评人协会奖(2018)
  最佳音乐运用

  第3届亚特兰大影评人协会奖(2018)
  十佳影片
  最佳男配角 山姆·艾里奥特
  突破表演奖 Lady Gaga
  最佳处女作 布莱德利·库珀

  第22届美国在线影评人协会奖(2019)
  最佳影片(提名)
  最佳男主角(提名) 布莱德利·库珀
  最佳女主角(提名) Lady Gaga
  最佳新导演(提名) 布莱德利·库珀
  最佳原创歌曲

  第5届豆瓣电影年度榜单(2018)
  年度电影原声(提名)



  1. Video
  2. ID                                       : 1
  3. Format                                   : AVC
  4. Format/Info                              : Advanced Video Codec
  5. Format profile                           : <a href="/cdn-cgi/l/email-protection" class="__cf_email__" data-cfemail="d890b1bfb09894ecf6e9">[email protected]</a>
  6. Format settings                          : CABAC / 2 Ref Frames
  7. Format settings, CABAC                   : Yes
  8. Format settings, ReFrames                : 2 frames
  9. Codec ID                                 : V_MPEG4/ISO/AVC
  10. Duration                                 : 2 h 27 min
  11. Bit rate mode                            : Variable
  12. Bit rate                                 : 24.7 Mb/s
  13. Width                                    : 1 920 pixels
  14. Height                                   : 1 080 pixels
  15. Display aspect ratio                     : 16:9
  16. Frame rate mode                          : Constant
  17. Frame rate                               : 23.976 (24000/1001) FPS
  18. Color space                              : YUV
  19. Chroma subsampling                       : 4:2:0
  20. Bit depth                                : 8 bits
  21. Scan type                                : Progressive
  22. Bits/(Pixel*Frame)                       : 0.496
  23. Stream size                              : 25.4 GiB (75%)
  24. Title                                    : A.Star.Is.Born.2018.Encore.Edition.1080p.BluRay.REMUX.AVC.DTS-HD.MA.TrueHD.7.1.Atmos-FGT
  25. Language                                 : English
  26. Default                                  : No
  27. Forced                                   : No

  28. Audio #1
  29. ID                                       : 2
  30. Format                                   : MLP FBA 16-ch
  31. Format/Info                              : Meridian Lossless Packing FBA with 16-channel presentation
  32. Commercial name                          : Dolby TrueHD with Dolby Atmos
  33. Codec ID                                 : A_TRUEHD
  34. Duration                                 : 2 h 27 min
  35. Bit rate mode                            : Variable
  36. Bit rate                                 : 3 607 kb/s
  37. Maximum bit rate                         : 5 304 kb/s
  38. Channel(s)                               : 8 channels
  39. Channel layout                           : L R C LFE Ls Rs Lb Rb
  40. Sampling rate                            : 48.0 kHz
  41. Frame rate                               : 1 200.000 FPS (40 SPF)
  42. Compression mode                         : Lossless
  43. Stream size                              : 3.72 GiB (11%)
  44. Title                                    : A.Star.Is.Born.2018.Encore.Edition.1080p.BluRay.REMUX.AVC.DTS-HD.MA.TrueHD.7.1.Atmos-FGT
  45. Language                                 : English
  46. Default                                  : Yes
  47. Forced                                   : No
  48. Number of dynamic objects                : 15
  49. Bed channel count                        : 1 channel
  50. Bed channel configuration                : LFE

  51. Audio #2
  52. ID                                       : 3
  53. Format                                   : DTS XLL
  54. Format/Info                              : Digital Theater Systems
  55. Commercial name                          : DTS-HD Master Audio
  56. Codec ID                                 : A_DTS
  57. Duration                                 : 2 h 27 min
  58. Bit rate mode                            : Variable
  59. Bit rate                                 : 4 167 kb/s
  60. Channel(s)                               : 8 channels
  61. Channel layout                           : C L R LFE Lb Rb Lss Rss
  62. Sampling rate                            : 48.0 kHz
  63. Frame rate                               : 93.750 FPS (512 SPF)
  64. Bit depth                                : 24 bits
  65. Compression mode                         : Lossless
  66. Stream size                              : 4.30 GiB (13%)
  67. Title                                    : A.Star.Is.Born.2018.Encore.Edition.1080p.BluRay.REMUX.AVC.DTS-HD.MA.TrueHD.7.1.Atmos-FGT
  68. Language                                 : English
  69. Default                                  : No
  70. Forced                                   : No

  71. Audio #3
  72. ID                                       : 4
  73. Format                                   : AC-3
  74. Format/Info                              : Audio Coding 3
  75. Commercial name                          : Dolby Digital
  76. Codec ID                                 : A_AC3
  77. Duration                                 : 2 h 27 min
  78. Bit rate mode                            : Constant
  79. Bit rate                                 : 448 kb/s
  80. Channel(s)                               : 6 channels
  81. Channel layout                           : L R C LFE Ls Rs
  82. Sampling rate                            : 48.0 kHz
  83. Frame rate                               : 31.250 FPS (1536 SPF)
  84. Bit depth                                : 16 bits
  85. Compression mode                         : Lossy
  86. Stream size                              : 473 MiB (1%)
  87. Title                                    : A.Star.Is.Born.2018.Encore.Edition.1080p.BluRay.REMUX.AVC.DTS-HD.MA.TrueHD.7.1.Atmos-FGT
  88. Language                                 : English
  89. Service kind                             : Complete Main
  90. Default                                  : No
  91. Forced                                   : No

  92. Text #1
  93. ID                                       : 5
  94. Format                                   : UTF-8
  95. Codec ID                                 : S_TEXT/UTF8
  96. Codec ID/Info                            : UTF-8 Plain Text
  97. Duration                                 : 2 h 26 min
  98. Bit rate                                 : 65 b/s
  99. Count of elements                        : 2117
  100. Stream size                              : 70.6 KiB (0%)
  101. Title                                    : English-SRT
  102. Language                                 : English
  103. Default                                  : Yes
  104. Forced                                   : No

  105. Text #2
  106. ID                                       : 6
  107. Format                                   : UTF-8
  108. Codec ID                                 : S_TEXT/UTF8
  109. Codec ID/Info                            : UTF-8 Plain Text
  110. Duration                                 : 2 h 26 min
  111. Bit rate                                 : 72 b/s
  112. Count of elements                        : 2328
  113. Stream size                              : 77.6 KiB (0%)
  114. Title                                    : English-SDH-SRT
  115. Language                                 : English
  116. Default                                  : No
  117. Forced                                   : No

  118. Text #3
  119. ID                                       : 7
  120. Format                                   : PGS
  121. Muxing mode                              : zlib
  122. Codec ID                                 : S_HDMV/PGS
  123. Codec ID/Info                            : Picture based subtitle format used on BDs/HD-DVDs
  124. Duration                                 : 2 h 26 min
  125. Bit rate                                 : 43.4 kb/s
  126. Count of elements                        : 4657
  127. Stream size                              : 45.6 MiB (0%)
  128. Title                                    : English-PGS
  129. Language                                 : English
  130. Default                                  : No
  131. Forced                                   : No

  132. Text #4
  133. ID                                       : 8
  134. Format                                   : PGS
  135. Muxing mode                              : zlib
  136. Codec ID                                 : S_HDMV/PGS
  137. Codec ID/Info                            : Picture based subtitle format used on BDs/HD-DVDs
  138. Duration                                 : 2 h 26 min
  139. Bit rate                                 : 31.9 kb/s
  140. Count of elements                        : 3751
  141. Stream size                              : 33.5 MiB (0%)
  142. Title                                    : Chinese-PGS
  143. Language                                 : Chinese
  144. Default                                  : No
  145. Forced                                   : No

  146. Text #5
  147. ID                                       : 9
  148. Format                                   : PGS
  149. Muxing mode                              : zlib
  150. Codec ID                                 : S_HDMV/PGS
  151. Codec ID/Info                            : Picture based subtitle format used on BDs/HD-DVDs
  152. Duration                                 : 2 h 26 min
  153. Bit rate                                 : 29.5 kb/s
  154. Count of elements                        : 4023
  155. Stream size                              : 31.0 MiB (0%)
  156. Title                                    : Chinese-PGS
  157. Language                                 : Chinese
  158. Default                                  : No
  159. Forced                                   : No

  160. Text #6
  161. ID                                       : 10
  162. Format                                   : PGS
  163. Muxing mode                              : zlib
  164. Codec ID                                 : S_HDMV/PGS
  165. Codec ID/Info                            : Picture based subtitle format used on BDs/HD-DVDs
  166. Duration                                 : 2 h 26 min
  167. Bit rate                                 : 22.5 kb/s
  168. Count of elements                        : 3948
  169. Stream size                              : 23.6 MiB (0%)
  170. Title                                    : Korean-PGS
  171. Language                                 : Korean
  172. Default                                  : No
  173. Forced                                   : No

  174. Text #7
  175. ID                                       : 11
  176. Format                                   : PGS
  177. Muxing mode                              : zlib
  178. Codec ID                                 : S_HDMV/PGS
  179. Codec ID/Info                            : Picture based subtitle format used on BDs/HD-DVDs
  180. Duration                                 : 2 h 26 min
  181. Bit rate                                 : 27.8 kb/s
  182. Count of elements                        : 3973
  183. Stream size                              : 29.1 MiB (0%)
  184. Title                                    : Czech-PGS
  185. Language                                 : Czech
  186. Default                                  : No
  187. Forced                                   : No

  188. Text #8
  189. ID                                       : 12
  190. Format                                   : PGS
  191. Muxing mode                              : zlib
  192. Codec ID                                 : S_HDMV/PGS
  193. Codec ID/Info                            : Picture based subtitle format used on BDs/HD-DVDs
  194. Duration                                 : 2 h 26 min
  195. Bit rate                                 : 34.3 kb/s
  196. Count of elements                        : 4063
  197. Stream size                              : 36.0 MiB (0%)
  198. Title                                    : Hungarian-PGS
  199. Language                                 : Hungarian
  200. Default                                  : No
  201. Forced                                   : No

  202. Text #9
  203. ID                                       : 13
  204. Format                                   : PGS
  205. Muxing mode                              : zlib
  206. Codec ID                                 : S_HDMV/PGS
  207. Codec ID/Info                            : Picture based subtitle format used on BDs/HD-DVDs
  208. Duration                                 : 2 h 26 min
  209. Bit rate                                 : 33.3 kb/s
  210. Count of elements                        : 4068
  211. Stream size                              : 35.0 MiB (0%)
  212. Title                                    : Portuguese-PGS
  213. Language                                 : Portuguese
  214. Default                                  : No
  215. Forced                                   : No

  216. Text #10
  217. ID                                       : 14
  218. Format                                   : PGS
  219. Muxing mode                              : zlib
  220. Codec ID                                 : S_HDMV/PGS
  221. Codec ID/Info                            : Picture based subtitle format used on BDs/HD-DVDs
  222. Duration                                 : 2 h 26 min
  223. Bit rate                                 : 27.1 kb/s
  224. Count of elements                        : 3251
  225. Stream size                              : 28.4 MiB (0%)
  226. Title                                    : Romanian-PGS
  227. Language                                 : Romanian
  228. Default                                  : No
  229. Forced                                   : No

  230. Text #11
  231. ID                                       : 15
  232. Format                                   : PGS
  233. Muxing mode                              : zlib
  234. Codec ID                                 : S_HDMV/PGS
  235. Codec ID/Info                            : Picture based subtitle format used on BDs/HD-DVDs
  236. Duration                                 : 2 h 26 min
  237. Bit rate                                 : 36.0 kb/s
  238. Count of elements                        : 4059
  239. Stream size                              : 37.8 MiB (0%)
  240. Title                                    : Thai-PGS
  241. Language                                 : Thai
  242. Default                                  : No
  243. Forced                                   : No

  244. Menu
  245. 00:00:00.000                             : en:Chapter 01
  246. 00:09:18.224                             : en:Chapter 02
  247. 00:16:40.874                             : en:Chapter 03
  248. 00:21:41.300                             : en:Chapter 04
  249. 00:31:43.484                             : en:Chapter 05
  250. 00:37:51.185                             : en:Chapter 06
  251. 00:40:44.400                             : en:Chapter 07
  252. 00:51:34.508                             : en:Chapter 08
  253. 00:59:01.829                             : en:Chapter 09
  254. 01:01:30.937                             : en:Chapter 10
  255. 01:12:15.247                             : en:Chapter 11
  256. 01:21:37.475                             : en:Chapter 12
  257. 01:29:16.809                             : en:Chapter 13
  258. 01:32:36.676                             : en:Chapter 14
  259. 01:45:32.326                             : en:Chapter 15
  260. 01:54:51.801                             : en:Chapter 16
  261. 02:02:40.895                             : en:Chapter 17
  262. 02:13:08.939                             : en:Chapter 18
  263. 02:17:08.261                             : en:Chapter 19
复制代码









分享到:  QQ好友和群QQ好友和群
收藏收藏

级别:初级观众 Lv.1

注册时间
2019-6-9
最后登录
2019-6-9
听众
3
收听
0
主题
0
蓝光币
3 枚
贡献
0 点
沙发
发表于 4 天前 | 只看该作者
楼主发贴辛苦了,谢谢楼主分享!我觉得中国高清电影网是注册对了!

级别:初级观众 Lv.1

注册时间
2019-6-10
最后登录
2019-6-10
听众
3
收听
0
主题
0
蓝光币
2 枚
贡献
0 点
板凳
发表于 3 天前 | 只看该作者
楼主发贴辛苦了,谢谢楼主分享!我觉得中国高清电影网是注册对了!

级别:初级观众 Lv.1

注册时间
2019-6-13
最后登录
2019-6-13
听众
1
收听
0
主题
0
蓝光币
0 枚
贡献
0 点
地板
发表于 10 小时前 | 只看该作者
经典电影
*滑动验证:
懒得打字嘛,点击右侧快捷回复 【右侧内容,后台自定义】
您需要登录后才可以回帖 登录 | 立即注册

本版积分规则

|Archiver|手机版|小黑屋| |网站地图

GMT+8, 2019-6-13 19:01 , Processed in 0.319149 second(s), 43 queries .

Powered by HDchina X3.4

Copyright 2017-2019©HDchina.All right reserved

返回顶部 联系我们
幸运飞艇APP 幸运飞艇游戏 幸运飞艇APP 幸运飞艇游戏 幸运飞艇APP 幸运飞艇游戏 幸运飞艇游戏 幸运飞艇APP 幸运飞艇游戏 幸运飞艇APP