你所知道的4K资源这里全部都有 4K电影 | 4K视频 | 4K壁纸 | 4K MV 怎么播放4K视频 | 4K电视演示片

教你玩转4K私人与家庭影院存储 NAS组装 | 黑群辉 家庭/影院Nas论坛

4K家庭影院信号源与视频设备知识 4K蓝光高清播放机 - 那个品牌好? 4K投影机论坛 | 4K电视机论坛

手把手教你搭建属于自己的家庭影院 4K家庭影院案例 | 家庭影院音频 4K家庭影院论坛

查看: 67|回复: 1
打印 上一主题 下一主题

[恐怖片] 午夜凶铃(美版)/七夜冤灵 The。Ring。2002。1080p。BluRay。X264-AMIABLE 7。94GB

[复制链接]

 成长值: 1550

级别:资源管理组

注册时间
2017-10-20
最后登录
2019-6-13
听众
0
收听
0
主题
78353
蓝光币
25131 枚
贡献
2677 点
跳转到指定楼层
楼主


译  名 午夜凶铃(美版) / 七夜冤灵(港) / 美版午夜凶铃
片  名 The Ring
年  代 2002
产  地 美国 / 日本
类  别 悬疑 / 恐怖
语  言 英语
上映日期 2002-11-14
IMDb评分  7.1/10 from 297821 users
IMDb链接  
豆瓣评分 6.4/10 from 9718 users
豆瓣链接 
片  长 115 分钟
导  演 戈尔·维宾斯基 Gore Verbinski
编  剧 艾仁·克鲁格 Ehren Kruger / 高橋洋 Takahashi Hiroshi / 铃木光司 K?ji Suzuki
主  演 娜奥米·沃茨 Naomi Watts
      马丁·亨德森 Martin Henderson
      David Dorfman


标  签 恐怖 | 美国 | 惊悚 | 美国电影 | 2002 | 恐怖电影 | 恐怖片 | NaomiWatts

简  介  

  坊间流传着一个恐怖的传说,它和一盒神秘的录像带有关,传说中,凡是看过这盘录像带的人,会在七天之后死亡。理性至上的女记者凯勒(娜奥米·沃茨 Naomi Watts 饰)只将此当成是一个玩笑,可侄女凯蒂(爱波·塔布琳 Amber Tamblyn 饰)的死却让她的信仰产生了动摇。凯勒的姐姐告诉凯勒,凯蒂曾和三个同学一起看过一盘诡异的录像带,而这三位同学无一例外都死于了非命。
凯勒决定着手调查此事,她找到了凯蒂曾经看过的录像带并看了录像带中的内容,之后,一个神秘的电话预示了凯勒死期已近。想要活命,凯勒就必须在七天之内找到录像带诅咒的真相,时间紧迫,凯勒最终能够成功脱险吗?

  1. Video
  2. ID                                       : 1
  3. Format                                   : AVC
  4. Format/Info                              : Advanced Video Codec
  5. Format profile                           : <a href="/cdn-cgi/l/email-protection" class="__cf_email__" data-cfemail="2f674648476f631b011e">[email protected]</a>
  6. Format settings, CABAC                   : Yes
  7. Format settings, ReFrames                : 4 frames
  8. Codec ID                                 : V_MPEG4/ISO/AVC
  9. Duration                                 : 1h 55mn
  10. Bit rate                                 : 8 355 Kbps
  11. Width                                    : 1 920 pixels
  12. Height                                   : 1 040 pixels
  13. Display aspect ratio                     : 1.85:1
  14. Frame rate mode                          : Constant
  15. Frame rate                               : 23.976 fps
  16. Color space                              : YUV
  17. Chroma subsampling                       : 4:2:0
  18. Bit depth                                : 8 bits
  19. Scan type                                : Progressive
  20. Bits/(Pixel*Frame)                       : 0.175
  21. Stream size                              : 6.57 GiB (83%)
  22. Writing library                          : x264 core 122 r2184 5c85e0a
  23. Encoding settings                        : cabac=1 / ref=4 / deblock=1:0:0 / analyse=0x3:0x113 / me=umh / subme=8 / psy=1 / psy_rd=1.00:0.00 / mixed_ref=1 / me_range=16 / chroma_me=1 / trellis=1 / 8x8dct=1 / cqm=0 / deadzone=21,11 / fast_pskip=1 / chroma_qp_offset=-2 / threads=12 / sliced_threads=0 / nr=0 / decimate=1 / interlaced=0 / bluray_compat=0 / constrained_intra=0 / bframes=3 / b_pyramid=2 / b_adapt=2 / b_bias=0 / direct=3 / weightb=1 / open_gop=0 / weightp=2 / keyint=240 / keyint_min=24 / scenecut=40 / intra_refresh=0 / rc_lookahead=50 / rc=2pass / mbtree=1 / bitrate=8355 / ratetol=1.0 / qcomp=0.60 / qpmin=0 / qpmax=69 / qpstep=4 / cplxblur=20.0 / qblur=0.5 / ip_ratio=1.40 / aq=1:1.00
  24. Language                                 : English
  25. Default                                  : Yes
  26. Forced                                   : No

  27. Audio
  28. ID                                       : 2
  29. Format                                   : DTS
  30. Format/Info                              : Digital Theater Systems
  31. Mode                                     : 16
  32. Format settings, Endianness              : Big
  33. Codec ID                                 : A_DTS
  34. Duration                                 : 1h 55mn
  35. Bit rate mode                            : Constant
  36. Bit rate                                 : 1 509 Kbps
  37. Channel(s)                               : 6 channels
  38. Channel positions                        : Front: L C R, Side: L R, LFE
  39. Sampling rate                            : 48.0 KHz
  40. Bit depth                                : 24 bits
  41. Compression mode                         : Lossy
  42. Stream size                              : 1.22 GiB (15%)
  43. Language                                 : English
  44. Default                                  : Yes
  45. Forced                                   : No

  46. Text
  47. ID                                       : 3
  48. Format                                   : UTF-8
  49. Codec ID                                 : S_TEXT/UTF8
  50. Codec ID/Info                            : UTF-8 Plain Text
  51. Language                                 : English
  52. Default                                  : No
  53. Forced                                   : No

  54. Menu
  55. 00:00:00.000                             : en:00:00:00.000
  56. 00:07:32.911                             : en:00:07:32.911
  57. 00:12:39.175                             : en:00:12:39.175
  58. 00:15:36.561                             : en:00:15:36.561
  59. 00:21:54.939                             : en:00:21:54.939
  60. 00:23:42.504                             : en:00:23:42.504
  61. 00:26:47.606                             : en:00:26:47.606
  62. 00:32:03.588                             : en:00:32:03.588
  63. 00:37:14.107                             : en:00:37:14.107
  64. 00:39:21.859                             : en:00:39:21.859
  65. 00:42:32.341                             : en:00:42:32.341
  66. 00:47:26.844                             : en:00:47:26.844
  67. 00:49:19.373                             : en:00:49:19.373
  68. 00:54:37.107                             : en:00:54:37.107
  69. 00:58:46.106                             : en:00:58:46.106
  70. 01:00:55.026                             : en:01:00:55.026
  71. 01:08:55.590                             : en:01:08:55.590
  72. 01:13:47.381                             : en:01:13:47.381
  73. 01:20:35.998                             : en:01:20:35.998
  74. 01:23:45.395                             : en:01:23:45.395
  75. 01:38:01.876                             : en:01:38:01.876
  76. 01:44:13.581                             : en:01:44:13.581
  77. 01:47:06.420                             : en:01:47:06.420
复制代码









分享到:  QQ好友和群QQ好友和群
收藏收藏

级别:初级观众 Lv.1

注册时间
2019-6-12
最后登录
2019-6-12
听众
1
收听
0
主题
0
蓝光币
1 枚
贡献
0 点
沙发
发表于 昨天 17:22 | 只看该作者
楼主发贴辛苦了,谢谢楼主分享!我觉得中国高清电影网是注册对了!
*滑动验证:
懒得打字嘛,点击右侧快捷回复 【右侧内容,后台自定义】
您需要登录后才可以回帖 登录 | 立即注册

本版积分规则

|Archiver|手机版|小黑屋| |网站地图

GMT+8, 2019-6-13 19:01 , Processed in 0。204582 second(s), 46 queries 。

Powered by HDchina X3.4

Copyright 2017-2019©HDchina.All right reserved

返回顶部 联系我们
幸运飞艇APP 幸运飞艇游戏 幸运飞艇游戏 幸运飞艇游戏 幸运飞艇APP 幸运飞艇游戏 幸运飞艇APP 幸运飞艇APP 幸运飞艇游戏 幸运飞艇游戏