你所知道的4K资源这里全部都有 4K电影 | 4K视频 | 4K壁纸 | 4K MV 怎么播放4K视频 | 4K电视演示片

教你玩转4K私人与家庭影院存储 NAS组装 | 黑群辉 家庭/影院Nas论坛

4K家庭影院信号源与视频设备知识 4K蓝光高清播放机 - 那个品牌好? 4K投影机论坛 | 4K电视机论坛

手把手教你搭建属于自己的家庭影院 4K家庭影院案例 | 家庭影院音频 4K家庭影院论坛

查看: 350|回复: 8
打印 上一主题 下一主题

[灾难片] 世界的末日 End。of。the。World。2018。1080p。BluRay。x264-JustWatch 6。56GB

[复制链接]

 成长值: 1550

级别:资源管理组

注册时间
2017-10-20
最后登录
2019-6-13
听众
0
收听
0
主题
78353
蓝光币
25131 枚
贡献
2677 点
跳转到指定楼层
楼主
发表于 2019-1-28 10:27:47 | 只看该作者 |只看大图 回帖奖励 |倒序浏览 |阅读模式


◎译  名 世界的末日 / The End of the World
◎片  名 世界的末日 End of the World
◎年  代 2018
◎国  家 美国
◎类  别 灾难
◎语  言 英语
◎上映日期 2018-11-20(美国)
◎IMDb评分  目前无人评价
◎IMDb链接  
◎豆瓣评分 目前无人评价
◎豆瓣链接 
◎片  长 90分钟
◎导  演 Maximilian Elfeldt
◎主  演 Jhey Castles
      Joseph Michael Harris
      Evan James Henderson
      Sallieu Sesay

◎简  介 

  As mass of solar storms causes tsunamis, volcanoes, and flooding, a city-dwelling family attempts to flee to the relative safety of a group of high-elevation caves several miles away.


  1. Video
  2. ID                                       : 1
  3. Format                                   : AVC
  4. Format/Info                              : Advanced Video Codec
  5. Format profile                           : [url=/cdn-cgi/l/email-protection][email protected][/url]
  6. Format settings                          : CABAC / 4 Ref Frames
  7. Format settings, CABAC                   : Yes
  8. Format settings, ReFrames                : 4 frames
  9. Codec ID                                 : V_MPEG4/ISO/AVC
  10. Duration                                 : 1 h 28 min
  11. Bit rate                                 : 9 144 kb/s
  12. Width                                    : 1 920 pixels
  13. Height                                   : 1 080 pixels
  14. Display aspect ratio                     : 16:9
  15. Frame rate mode                          : Constant
  16. Frame rate                               : 23.976 (24000/1001) FPS
  17. Color space                              : YUV
  18. Chroma subsampling                       : 4:2:0
  19. Bit depth                                : 8 bits
  20. Scan type                                : Progressive
  21. Bits/(Pixel*Frame)                       : 0.184
  22. Stream size                              : 5.50 GiB (84%)
  23. Writing library                          : x264 core 155 r2901 7d0ff22
  24. Encoding settings                        : cabac=1 / ref=4 / deblock=1:-2:-2 / analyse=0x3:0x113 / me=umh / subme=8 / psy=1 / psy_rd=1.00:0.00 / mixed_ref=1 / me_range=16 / chroma_me=1 / trellis=2 / 8x8dct=1 / cqm=0 / deadzone=21,11 / fast_pskip=1 / chroma_qp_offset=-2 / threads=34 / lookahead_threads=5 / sliced_threads=0 / nr=0 / decimate=1 / interlaced=0 / bluray_compat=0 / constrained_intra=0 / bframes=3 / b_pyramid=2 / b_adapt=2 / b_bias=0 / direct=3 / weightb=1 / open_gop=0 / weightp=2 / keyint=240 / keyint_min=24 / scenecut=40 / intra_refresh=0 / rc_lookahead=50 / rc=2pass / mbtree=1 / bitrate=9144 / ratetol=1.0 / qcomp=0.60 / qpmin=0 / qpmax=69 / qpstep=4 / cplxblur=20.0 / qblur=0.5 / ip_ratio=1.40 / aq=1:1.00
  25. Language                                 : English
  26. Default                                  : Yes
  27. Forced                                   : No

  28. Audio
  29. ID                                       : 2
  30. Format                                   : DTS
  31. Format/Info                              : Digital Theater Systems
  32. Codec ID                                 : A_DTS
  33. Duration                                 : 1 h 28 min
  34. Bit rate mode                            : Constant
  35. Bit rate                                 : 1 509 kb/s
  36. Channel(s)                               : 6 channels
  37. Channel layout                           : C L R Ls Rs LFE
  38. Sampling rate                            : 48.0 kHz
  39. Frame rate                               : 93.750 FPS (512 SPF)
  40. Bit depth                                : 24 bits
  41. Compression mode                         : Lossy
  42. Stream size                              : 951 MiB (14%)
  43. Language                                 : English
  44. Default                                  : Yes
  45. Forced                                   : No

  46. Menu
  47. 00:00:00.000                             : en:00:00:00.000
  48. 00:10:02.435                             : en:00:10:02.435
  49. 00:19:15.905                             : en:00:19:15.905
  50. 00:30:14.396                             : en:00:30:14.396
  51. 00:39:41.212                             : en:00:39:41.212
  52. 00:50:09.965                             : en:00:50:09.965
  53. 00:59:11.840                             : en:00:59:11.840
  54. 01:09:54.148                             : en:01:09:54.148
  55. 01:16:33.422                             : en:01:16:33.422
  56. 01:24:26.311                             : en:01:24:26.311
复制代码

复制代码









分享到:  QQ好友和群QQ好友和群
收藏收藏

级别:荣升主角 Lv.5

注册时间
2018-12-30
最后登录
2019-6-13
听众
6
收听
0
主题
1
蓝光币
846 枚
贡献
1 点
沙发
发表于 2019-1-28 11:48:23 | 只看该作者

楼主太厉害了!楼主,电影应该很好看我觉得中国高清电影网真是个好地方!

级别:普通观众 Lv.2

注册时间
2019-1-4
最后登录
2019-6-13
听众
6
收听
0
主题
0
蓝光币
1 枚
贡献
0 点
板凳
发表于 2019-1-29 09:56:27 | 只看该作者
看着海报还不错

级别:专业龙套 Lv.4

注册时间
2019-1-21
最后登录
2019-2-17
听众
4
收听
0
主题
0
蓝光币
389 枚
贡献
0 点
地板
发表于 2019-2-2 08:28:14 | 只看该作者
楼主发贴辛苦了,谢谢楼主分享!我觉得中国高清电影网是注册对了!

级别:初级观众 Lv.1

注册时间
2019-1-31
最后登录
2019-2-14
听众
4
收听
0
主题
0
蓝光币
7 枚
贡献
0 点
5#
发表于 2019-2-2 13:29:31 | 只看该作者
楼主发贴辛苦了,谢谢楼主分享

级别:荣升主角 Lv.5

注册时间
2019-2-2
最后登录
2019-6-13
听众
6
收听
0
主题
1
蓝光币
480 枚
贡献
1 点
6#
发表于 2019-2-2 14:54:35 | 只看该作者

这个帖子不回对不起自己!我想我是一天也不能离开中国高清电影网

级别:荣升主角 Lv.5

注册时间
2019-2-7
最后登录
2019-6-13
听众
4
收听
0
主题
0
蓝光币
420 枚
贡献
0 点
7#
发表于 2019-2-8 22:00:02 | 只看该作者
楼主发贴辛苦了,谢谢楼主分享!我觉得中国高清电影网是注册对了!

级别:初级观众 Lv.1

注册时间
2019-2-15
最后登录
2019-2-15
听众
4
收听
0
主题
0
蓝光币
3 枚
贡献
0 点
8#
发表于 2019-2-15 16:34:38 | 只看该作者

楼主太厉害了!楼主,电影应该很好看我觉得中国高清电影网真是个好地方!

级别:普通观众 Lv.2

注册时间
2019-1-4
最后登录
2019-6-13
听众
6
收听
0
主题
0
蓝光币
1 枚
贡献
0 点
9#
发表于 9 小时前 | 只看该作者
电影制作的特效有点粗糙
*滑动验证:
懒得打字嘛,点击右侧快捷回复 【右侧内容,后台自定义】
您需要登录后才可以回帖 登录 | 立即注册

本版积分规则

|Archiver|手机版|小黑屋| |网站地图

GMT+8, 2019-6-13 18:58 , Processed in 0.095575 second(s), 46 queries .

Powered by HDchina X3.4

Copyright 2017-2019©HDchina.All right reserved

返回顶部 联系我们
幸运飞艇APP 幸运飞艇APP 幸运飞艇APP 幸运飞艇游戏 幸运飞艇APP 幸运飞艇游戏 幸运飞艇游戏 幸运飞艇游戏 幸运飞艇APP 幸运飞艇APP