你所知道的4K资源这里全部都有 4K电影 | 4K视频 | 4K壁纸 | 4K MV 怎么播放4K视频 | 4K电视演示片

教你玩转4K私人与家庭影院存储 NAS组装 | 黑群辉 家庭/影院Nas论坛

4K家庭影院信号源与视频设备知识 4K蓝光高清播放机 - 那个品牌好? 4K投影机论坛 | 4K电视机论坛

手把手教你搭建属于自己的家庭影院 4K家庭影院案例 | 家庭影院音频 4K家庭影院论坛

查看: 371|回复: 5
打印 上一主题 下一主题

[灾难片] 潘多拉 Pandora.2016.KOREAN.1080p.BluRay.x264.DTS-FGT 12.34GB

[复制链接]

 成长值: 1550

级别:资源管理组

注册时间
2017-10-20
最后登录
2019-6-13
听众
0
收听
0
主题
78353
蓝光币
25131 枚
贡献
2677 点
跳转到指定楼层
楼主
发表于 2018-12-8 10:38:57 | 只看该作者 |只看大图 回帖奖励 |倒序浏览 |阅读模式




◎译  名 潘多拉 / Pandora / 潘朵拉(港 / 台)
◎片  名 ???
◎年  代 2016
◎产  地 韩国
◎类  别 动作 / 惊悚 / 灾难
◎语  言 韩语
◎上映日期 2016-12-07(韩国)
◎IMDb评分 6.6/10 from 3160 users
◎IMDb链接 
◎豆瓣评分 7.5/10 from 22496 users
◎豆瓣链接 
◎片  长 136分钟
◎导  演 朴正祐 Jeong-woo Park
◎编  剧 朴正祐 Jeong-woo Park
◎主  演 金南佶 Nam-gil Kim
      金珠贤 Joo-Hyun Kim
      郑镇荣 Jin-yeong Jeong
      金英爱 Yeong-ae Kim
      文晶熙 Jung-Hee Moon
      金大明 Dae-Myung Kim
      李璟荣 Kyeong-yeong Lee
      姜信日 Shin-il Kang
      刘承睦 Yoo Seung-Mok
      金明民 Myeong-min Kim


◎标  签 灾难 | 韩国 | 人性 | 核电站 | 感动 | 剧情 | 政治 | 2016

◎简  介  

  讲述的是日本311大地震之后,核电站陷入危机的故事,导演朴正祐
金明民将饰演应对危机的韩国总统,将继《铁线虫入侵》之后再次和朴正祐导演合作。金南佶饰演核电站的技术人员,将在核电站陷入危机时孤军奋战。

◎获奖情况  

  第11届亚洲电影大奖(2017)
  最佳美术指导(提名) 康承永

  第54届韩国电影大钟奖(2017)
  最佳影片(提名)
  最佳导演(提名) 朴正祐
  最佳男配角(提名) 郑镇荣
  最佳女配角(提名) 金英爱
  最佳企划(提名)
  最佳摄影(提名)
  最佳剪辑(提名)
  最佳美术(提名)
  最佳技术奖(提名)
  最佳照明(提名)

  第4届豆瓣电影年度榜单(2017)
  评分最高的韩国电影(提名)




  1. Video
  2. ID                                       : 1
  3. Format                                   : AVC
  4. Format/Info                              : Advanced Video Codec
  5. Format profile                           : [url=/cdn-cgi/l/email-protection][email protected][/url]
  6. Format settings                          : CABAC / 4 Ref Frames
  7. Format settings, CABAC                   : Yes
  8. Format settings, ReFrames                : 4 frames
  9. Codec ID                                 : V_MPEG4/ISO/AVC
  10. Duration                                 : 2 h 15 min
  11. Bit rate                                 : 11.5 Mb/s
  12. Width                                    : 1 920 pixels
  13. Height                                   : 804 pixels
  14. Display aspect ratio                     : 2.40:1
  15. Frame rate mode                          : Constant
  16. Frame rate                               : 23.976 (24000/1001) FPS
  17. Color space                              : YUV
  18. Chroma subsampling                       : 4:2:0
  19. Bit depth                                : 8 bits
  20. Scan type                                : Progressive
  21. Bits/(Pixel*Frame)                       : 0.311
  22. Stream size                              : 10.9 GiB (88%)
  23. Title                                    : Pandora.2016.KOREAN.1080p.BluRay.x264.DTS-FGT
  24. Writing library                          : x264 core 148 r2795M aaa9aa8
  25. Encoding settings                        : cabac=1 / ref=4 / deblock=1:-2:-2 / analyse=0x3:0x113 / me=umh / subme=9 / psy=1 / psy_rd=1.00:0.15 / mixed_ref=1 / me_range=16 / chroma_me=1 / trellis=2 / 8x8dct=1 / cqm=0 / deadzone=21,11 / fast_pskip=1 / chroma_qp_offset=-3 / threads=24 / lookahead_threads=3 / sliced_threads=0 / nr=0 / decimate=1 / interlaced=0 / bluray_compat=0 / constrained_intra=0 / bframes=3 / b_pyramid=2 / b_adapt=1 / b_bias=0 / direct=3 / weightb=1 / open_gop=0 / weightp=2 / keyint=250 / keyint_min=25 / scenecut=40 / intra_refresh=0 / rc_lookahead=50 / rc=2pass / mbtree=1 / bitrate=11500 / ratetol=1.0 / qcomp=0.60 / qpmin=0 / qpmax=69 / qpstep=4 / cplxblur=20.0 / qblur=0.5 / vbv_maxrate=31250 / vbv_bufsize=31250 / nal_hrd=none / filler=0 / ip_ratio=1.40 / aq=1:1.00
  26. Language                                 : English
  27. Default                                  : Yes
  28. Forced                                   : No

  29. Audio
  30. ID                                       : 2
  31. Format                                   : DTS
  32. Format/Info                              : Digital Theater Systems
  33. Codec ID                                 : A_DTS
  34. Duration                                 : 2 h 15 min
  35. Bit rate mode                            : Constant
  36. Bit rate                                 : 1 509 kb/s
  37. Channel(s)                               : 6 channels
  38. Channel layout                           : C L R Ls Rs LFE
  39. Sampling rate                            : 48.0 kHz
  40. Frame rate                               : 93.750 FPS (512 SPF)
  41. Bit depth                                : 24 bits
  42. Compression mode                         : Lossy
  43. Stream size                              : 1.43 GiB (12%)
  44. Title                                    : Pandora.2016.KOREAN.1080p.BluRay.x264.DTS-FGT
  45. Language                                 : Korean
  46. Default                                  : No
  47. Forced                                   : No

  48. Text
  49. ID                                       : 3
  50. Format                                   : UTF-8
  51. Codec ID                                 : S_TEXT/UTF8
  52. Codec ID/Info                            : UTF-8 Plain Text
  53. Duration                                 : 2 h 7 min
  54. Bit rate                                 : 49 b/s
  55. Count of elements                        : 2096
  56. Stream size                              : 46.6 KiB (0%)
  57. Language                                 : English
  58. Default                                  : Yes
  59. Forced                                   : Yes

  60. Menu
  61. 00:00:00.000                             : en:Chapter 01
  62. 00:11:56.006                             : en:Chapter 02
  63. 00:22:29.097                             : en:Chapter 03
  64. 00:33:33.052                             : en:Chapter 04
  65. 00:44:23.285                             : en:Chapter 05
  66. 00:53:12.898                             : en:Chapter 06
  67. 01:03:10.119                             : en:Chapter 07
  68. 01:16:51.607                             : en:Chapter 08
  69. 01:31:43.915                             : en:Chapter 09
  70. 01:44:51.994                             : en:Chapter 10
  71. 01:55:40.058                             : en:Chapter 11
  72. 02:07:03.907                             : en:Chapter 12
复制代码

复制代码








分享到:  QQ好友和群QQ好友和群
收藏收藏

级别:初级观众 Lv.1

注册时间
2018-12-8
最后登录
2018-12-8
听众
4
收听
0
主题
0
蓝光币
2 枚
贡献
0 点
沙发
发表于 2018-12-8 22:17:35 | 只看该作者
什么时候可以下载

级别:专业龙套 Lv.4

注册时间
2018-11-13
最后登录
2019-6-12
听众
6
收听
0
主题
0
蓝光币
664 枚
贡献
0 点
板凳
发表于 2018-12-9 00:24:52 | 只看该作者

这东西我收了!谢谢楼主!中国高清电影网真好!

级别:普通观众 Lv.2

注册时间
2019-1-4
最后登录
2019-6-13
听众
6
收听
0
主题
0
蓝光币
1 枚
贡献
0 点
地板
发表于 2019-1-9 15:37:35 | 只看该作者

感谢楼主的无私分享!要想中国高清电影网好 就靠你我他

级别:群众演员 Lv.3

注册时间
2019-1-18
最后登录
2019-2-17
听众
4
收听
0
主题
0
蓝光币
163 枚
贡献
0 点
5#
发表于 2019-1-18 16:15:44 | 只看该作者

这个帖子不回对不起自己!我想我是一天也不能离开中国高清电影网

级别:普通观众 Lv.2

注册时间
2019-1-4
最后登录
2019-6-13
听众
6
收听
0
主题
0
蓝光币
1 枚
贡献
0 点
6#
发表于 9 小时前 | 只看该作者
谢谢分享!冒个泡,拿分走人
*滑动验证:
懒得打字嘛,点击右侧快捷回复 【右侧内容,后台自定义】
您需要登录后才可以回帖 登录 | 立即注册

本版积分规则

|Archiver|手机版|小黑屋| |网站地图

GMT+8, 2019-6-13 18:57 , Processed in 0.127252 second(s), 45 queries .

Powered by HDchina X3.4

Copyright 2017-2019©HDchina.All right reserved

返回顶部 联系我们
幸运飞艇游戏 幸运飞艇APP 幸运飞艇游戏 幸运飞艇APP 幸运飞艇APP 幸运飞艇游戏 幸运飞艇游戏 幸运飞艇游戏 幸运飞艇APP 幸运飞艇游戏