你所知道的4K资源这里全部都有 4K电影 | 4K视频 | 4K壁纸 | 4K MV 怎么播放4K视频 | 4K电视演示片

教你玩转4K私人与家庭影院存储 NAS组装 | 黑群辉 家庭/影院Nas论坛

4K家庭影院信号源与视频设备知识 4K蓝光高清播放机 - 那个品牌好? 4K投影机论坛 | 4K电视机论坛

手把手教你搭建属于自己的家庭影院 4K家庭影院案例 | 家庭影院音频 4K家庭影院论坛

查看: 1638|回复: 41
打印 上一主题 下一主题

[科幻片] 毒液:致命守护者/毒魔 Venom.2018.1080p.WEBRip.x264.AAC2.0-SHITBOX 11.52GB

[复制链接]

 成长值: 1550

级别:资源管理组

注册时间
2017-10-20
最后登录
2019-6-13
听众
0
收听
0
主题
78353
蓝光币
25131 枚
贡献
2677 点
跳转到指定楼层
楼主
发表于 2018-11-28 23:17:23 | 只看该作者 |只看大图 回帖奖励 |倒序浏览 |阅读模式

◎译  名 毒液:致命守护者 / 毒魔(港) / 猛毒(台) / 毒液
◎片  名 毒液:致命守护者 Venom
◎年  代 2018
◎国  家 美国 / 中国大陆
◎类  别 动作 / 科幻 / 惊悚
◎语  言 英语 / 汉语普通话
◎上映日期 2018-11-09(中国大陆) / 2018-10-05(美国)
◎IMDb评分  7.0/10 from 128,686 users
◎IMDb链接  
◎豆瓣评分 7.3/10 from 251231 users
◎豆瓣链接 
◎片  长 112分钟 / 107分钟(中国大陆)
◎导  演 鲁本·弗雷斯彻
◎主  演 汤姆·哈迪
      米歇尔·威廉姆斯
      里兹·阿迈德
      斯科特·黑兹
       瑞德·斯科特
      珍妮·斯蕾特
      梅罗拉·沃特斯
      伍迪·哈里森
      佩吉·陆
      马尔科姆·C·默里
      索佩·阿卢科
      韦恩·佩雷
      米歇尔·李
      库尔特·岳
      克里斯·奥哈拉
      埃米里奥·瑞弗拉
      阿里亚当娜·约瑟夫
      袁之正
      朴云龙
      麦克·勃兰特
      尼克·图恩
      山姆·麦地那
      迪塞尔·马德金斯
      简·麦克尼尔
      维克托·麦凯
      马丁·巴特斯·布拉德福德
      布兰顿·莫拉莱斯
      马修·康威尔
      斯坦·李
      韦德·威廉姆斯
      约瑟夫·阿梅
      威廉·W·巴伯
      玛塞拉·布拉吉奥
      卡特·伯奇
      克里斯蒂安·康佛瑞
      詹姆斯·富尔特斯
      丹妮拉·加斯基
      约翰·盖蒂尔
      艾米丽塔·T·冈萨雷斯
      杰克·汉森
      安东尼·B·哈里斯
      卡茜·亨德利
      罗恩·彼得·琼斯
      霍梅洛·洛佩兹
      万恩·姆约维奇

◎简  介 

  艾迪(汤姆·哈迪 Tom Hardy 饰)是一位深受观众喜爱的新闻记者,和女友安妮(米歇尔·威廉姆斯 Michelle Williams 饰)相恋多年,彼此之间感情十分要好。安妮是一名律师,接手了生命基金会的案件,在女友的邮箱里,艾迪发现了基金会老板德雷克(里兹·阿迈德 Riz Ahmed 饰)不为人知的秘密。为此,艾迪不仅丢了工作,女友也离他而去。
  之后,生命基金会的朵拉博士(珍妮·斯蕾特 Jenny Slate 饰)找到了艾迪,希望艾迪能够帮助她阻止德雷克疯狂的罪行。在生命基金会的实验室里,艾迪发现了德雷克进行人体实验的证据,并且在误打误撞之中被外星生命体毒液附身。回到家后,艾迪和毒液之间形成了共生关系,他们要应对的是德雷克派出的一波又一波杀手。


  1. Video
  2. ID                                       : 1
  3. Format                                   : AVC
  4. Format/Info                              : Advanced Video Codec
  5. Format profile                           : [url=/cdn-cgi/l/email-protection][email protected][/url]
  6. Format settings                          : CABAC / 4 Ref Frames
  7. Format settings, CABAC                   : Yes
  8. Format settings, ReFrames                : 4 frames
  9. Codec ID                                 : V_MPEG4/ISO/AVC
  10. Duration                                 : 1 h 47 min
  11. Bit rate                                 : 15.1 Mb/s
  12. Nominal bit rate                         : 16.0 Mb/s
  13. Width                                    : 1 920 pixels
  14. Height                                   : 800 pixels
  15. Display aspect ratio                     : 2.40:1
  16. Frame rate mode                          : Constant
  17. Frame rate                               : 23.976 (24000/1001) FPS
  18. Color space                              : YUV
  19. Chroma subsampling                       : 4:2:0
  20. Bit depth                                : 8 bits
  21. Scan type                                : Progressive
  22. Bits/(Pixel*Frame)                       : 0.411
  23. Stream size                              : 11.3 GiB (98%)
  24. Title                                    : Venom.2018.1080p.WEBRip.x264.AAC2.0-SHITBOX
  25. Writing library                          : x264 core 142 r2479 dd79a61
  26. Encoding settings                        : cabac=1 / ref=1 / deblock=1:0:0 / analyse=0x3:0x113 / me=hex / subme=2 / psy=1 / psy_rd=1.00:0.00 / mixed_ref=0 / me_range=16 / chroma_me=1 / trellis=0 / 8x8dct=1 / cqm=0 / deadzone=21,11 / fast_pskip=1 / chroma_qp_offset=0 / threads=18 / lookahead_threads=6 / sliced_threads=0 / nr=0 / decimate=1 / interlaced=0 / bluray_compat=0 / constrained_intra=0 / bframes=3 / b_pyramid=2 / b_adapt=1 / b_bias=0 / direct=1 / weightb=1 / open_gop=0 / weightp=1 / keyint=240 / keyint_min=24 / scenecut=40 / intra_refresh=0 / rc_lookahead=10 / rc=abr / mbtree=1 / bitrate=16000 / ratetol=1.0 / qcomp=0.60 / qpmin=0 / qpmax=69 / qpstep=4 / vbv_maxrate=62500 / vbv_bufsize=78125 / nal_hrd=none / filler=0 / ip_ratio=1.40 / aq=1:1.00
  27. Default                                  : Yes
  28. Forced                                   : No
  29. Color range                              : Limited
  30. Color primaries                          : BT.709
  31. Transfer characteristics                 : BT.709
  32. Matrix coefficients                      : BT.709

  33. Audio
  34. ID                                       : 2
  35. Format                                   : AAC LC
  36. Format/Info                              : Advanced Audio Codec Low Complexity
  37. Codec ID                                 : A_AAC-2
  38. Duration                                 : 1 h 47 min
  39. Bit rate                                 : 256 kb/s
  40. Channel(s)                               : 2 channels
  41. Channel layout                           : L R
  42. Sampling rate                            : 48.0 kHz
  43. Frame rate                               : 46.875 FPS (1024 SPF)
  44. Compression mode                         : Lossy
  45. Stream size                              : 196 MiB (2%)
  46. Title                                    : Venom.2018.1080p.WEBRip.x264.AAC2.0-SHITBOX
  47. Language                                 : English
  48. Default                                  : Yes
  49. Forced                                   : No

  50. Text
  51. ID                                       : 3
  52. Format                                   : UTF-8
  53. Codec ID                                 : S_TEXT/UTF8
  54. Codec ID/Info                            : UTF-8 Plain Text
  55. Duration                                 : 1 h 34 min
  56. Bit rate                                 : 63 b/s
  57. Count of elements                        : 1360
  58. Stream size                              : 44.4 KiB (0%)
  59. Language                                 : English
  60. Default                                  : Yes
  61. Forced                                   : No
复制代码

复制代码






本帖隐藏的下载地址需要VIP会员才可浏览,您需要升级才可浏览,点击这里升级VIP
分享到:  QQ好友和群QQ好友和群
收藏收藏

级别:初级观众 Lv.1

注册时间
2018-11-15
最后登录
2019-2-20
听众
4
收听
0
主题
0
蓝光币
28 枚
贡献
0 点
沙发
发表于 2018-11-28 23:47:04 | 只看该作者
感谢分享

级别:初级观众 Lv.1

注册时间
2018-11-19
最后登录
2018-12-7
听众
4
收听
0
主题
0
蓝光币
29 枚
贡献
0 点
板凳
发表于 2018-11-29 04:25:11 | 只看该作者
感谢分享

级别:普通观众 Lv.2

注册时间
2018-11-15
最后登录
2019-6-7
听众
4
收听
0
主题
0
蓝光币
149 枚
贡献
0 点
地板
发表于 2018-11-29 11:03:24 | 只看该作者

楼主太厉害了!楼主,电影应该很好看我觉得中国高清电影网真是个好地方!

级别:群众演员 Lv.3

注册时间
2018-11-1
最后登录
2019-2-22
听众
4
收听
0
主题
0
蓝光币
327 枚
贡献
0 点
5#
发表于 2018-11-29 14:04:16 | 只看该作者
楼主发贴辛苦了,谢谢楼主分享!我觉得中国高清电影网是注册对了!

 成长值: 3340

级别:尊贵的会员

注册时间
2018-11-10
最后登录
2019-6-13
听众
6
收听
0
主题
0
蓝光币
759 枚
贡献
0 点
6#
发表于 2018-11-29 15:43:46 | 只看该作者

楼主太厉害了!楼主,电影应该很好看我觉得中国高清电影网真是个好地方!

级别:初级观众 Lv.1

注册时间
2018-11-29
最后登录
2018-12-30
听众
4
收听
0
主题
0
蓝光币
4 枚
贡献
0 点
7#
发表于 2018-11-29 17:17:12 | 只看该作者
确实厉害

级别:普通观众 Lv.2

注册时间
2018-11-29
最后登录
2019-5-6
听众
5
收听
0
主题
0
蓝光币
71 枚
贡献
0 点
8#
发表于 2018-11-29 17:49:43 | 只看该作者
感谢分享

级别:专业龙套 Lv.4

注册时间
2018-4-1
最后登录
2019-6-12
听众
7
收听
0
主题
0
蓝光币
170 枚
贡献
0 点
9#
发表于 2018-11-29 18:29:30 | 只看该作者
nice  good ~~

级别:初级观众 Lv.1

注册时间
2018-11-28
最后登录
2018-12-5
听众
4
收听
0
主题
0
蓝光币
11 枚
贡献
0 点
10#
发表于 2018-11-29 19:01:39 | 只看该作者
感谢分享
*滑动验证:
懒得打字嘛,点击右侧快捷回复 【右侧内容,后台自定义】
您需要登录后才可以回帖 登录 | 立即注册

本版积分规则

|Archiver|手机版|小黑屋| |网站地图

GMT+8, 2019-6-13 18:57 , Processed in 0。158196 second(s), 47 queries 。

Powered by HDchina X3.4

Copyright 2017-2019©HDchina.All right reserved

返回顶部 联系我们
幸运飞艇APP 幸运飞艇游戏 幸运飞艇APP 幸运飞艇游戏 幸运飞艇游戏 幸运飞艇APP 幸运飞艇APP 幸运飞艇APP 幸运飞艇APP 幸运飞艇游戏